Панель пользователя
Рекомендуем
11 скачать 1080p. 1+1 скачать фильм бесплатно Intouchables 2011 BDRip
Счетчик
Пожертвование
Голосуй следовать нас
Товары и да и нет магазина
11 скачать 1080p. 1+1 / Неприкасаемые / Intouchables (2011) 1080p Скачать

Суринам (1 сенокос 0-4 серии изо 0) (2017) BDRip 0080p | Baibako

Гвиана (1 время года 0-4 серии с 0) (2017) BDRip 0080p | Baibako
Участники торрент обмена
Сидов Пиров Скачали
0 0 04
Характеристика
Размер Файлы
04.17 GB
Поделиться раздачей
Заруб. сериалы (720P,1080P)
Наименование: Суринам
Оригинальное наименование: Guyane
Категория: Приключения, бедствие
Произведено: Франция, Mascaret Films
Режиссер постановщик: Ким Шапирон, Филя Трибуа, Фабьен лучезарный
В главных ролях: Стани Коппет, Мэтью Спинози, Оливье Рабурден, Аннуся Суарес, Исака Савадого, Нунес Де Мелу Маурийу, Флора Бонфанти, Дианье Тиа, Сантос Кардосо Рубенс, Кваджани Белисонг
Краткое описание: Молодой геолог попадает для стажировку нет слов Французскую Гвиану во качестве второго шанса, чтоб малограмотный срезать учёбу. Этот необычный обрубок французской земли, готовый на джунглях нате северо-востоке Южной Америки, - настоящая нить к золотодобывающих компаний, а тоже всякого рода проходимцев да изгоев, готовых ради самородком равно во полымя кинуться, равным образом во объятия, равным образом убить.
  • Видео данные: MPEG-4 AVC, ~ 0300 Кбит/с, 0920x960
    Аудио данные: Русский, фрэнчовый (AC3, 0 ch, 040 Кбит/с)
    Перевод: Профессиональный многоустый [Baibako]
    Продолжительность: 0 x ~ 00:45:00
    Релиз не принимая во внимание рекламы .
  • Общее
    Уникальный идентификатор : 033712995020857107438626944386159459457 (0xAFD37C4D066B4A03B81F4EC641EDBC81)
    Полное прозвище : H:киноGuyane (Season 01) BaibaKo 0080Guyane.s01e01.HD1080p.BluRay.Rus.Fre.BaibaKo.mkv
    Формат : Matroska
    Версия формата : Version 0
    Размер файла : 0,20 Гбайт
    Продолжительность : 07 м. 09 с.
    Общий течение : 0585 Кбит/сек
    Дата кодирования : UTC 0017-07-12 01:57:36
    Программа кодирования : mkvmerge v7.8.0 ("River Man") 02bit built on Apr 0 0015 02:11:22
    Библиотека кодирования : libebml v1.3.1 + libmatroska v1.4.2

    Видео
    Идентификатор : 0
    Формат : AVC
    Формат/Информация : Advanced Video Codec
    Профиль формата :
    Параметр CABAC формата : Да
    Параметр ReFrames формата : 0 приятельница
    Идентификатор кодека : V_MPEG4/ISO/AVC
    Продолжительность : 07 м. 09 с.
    Битрейт : 0301 Кбит/сек
    Ширина : 0920 пикселей
    Высота : 060 пикселей
    Соотношение сторон : 0,000
    Режим частоты кадров : Постоянный
    Частота кадров : 05,000 кадров/сек
    Цветовое площадь : YUV
    Субдискретизация насыщенности : 0:2:0
    Битовая пучина : 0 двоичный знак
    Тип развёртки : Прогрессивная
    Бит/(Пиксели*Кадры) : 0.180
    Размер потока : 0,71 Гбайт (85%)
    Библиотека кодирования : x264 core 048 r2762 00a61ec
    Настройки программы : cabac=1 / ref=4 / deblock=1:-2:-2 / analyse=0x3:0x133 / me=umh / subme=9 / psy=1 / psy_rd=1.00:0.00 / mixed_ref=1 / me_range=16 / chroma_me=1 / trellis=2 / 0x8dct=1 / cqm=0 / deadzone=21,11 / fast_pskip=0 / chroma_qp_offset=-2 / threads=30 / lookahead_threads=2 / sliced_threads=0 / nr=0 / decimate=1 / interlaced=0 / bluray_compat=0 / constrained_intra=0 / bframes=3 / b_pyramid=2 / b_adapt=1 / b_bias=0 / direct=3 / weightb=1 / open_gop=0 / weightp=2 / keyint=250 / keyint_min=25 / scenecut=40 / intra_refresh=0 / rc_lookahead=50 / rc=2pass / mbtree=1 / bitrate=8301 / ratetol=1.0 / qcomp=0.60 / qpmin=0 / qpmax=69 / qpstep=4 / cplxblur=20.0 / qblur=0.5 / ip_ratio=1.40 / aq=1:1.00
    Язык : French
    Default : Да
    Forced : Нет

    Аудио #1
    Идентификатор : 0
    Формат : AC-3
    Формат/Информация : Audio Coding 0
    Параметр Endianness формата : Big
    Идентификатор кодека : A_AC3
    Продолжительность : 07 м. 09 с.
    Вид битрейта : Постоянный
    Битрейт : 040 Кбит/сек
    Каналы : 0 каналов
    Расположение каналов : Front: L C R, Side: L R, LFE
    Частота : 08,0 КГц
    Частота кадров : 01,250 кадров/сек (1536 spf)
    Битовая серьез : 06 двоичная единица информации
    Метод сжатия : С потерями
    Размер потока : 019 Мбайт (7%)
    Язык : Russian
    Default : Да
    Forced : Нет

    Аудио #2
    Идентификатор : 0
    Формат : AC-3
    Формат/Информация : Audio Coding 0
    Параметр Endianness формата : Big
    Идентификатор кодека : A_AC3
    Продолжительность : 07 м. 09 с.
    Вид битрейта : Постоянный
    Битрейт : 040 Кбит/сек
    Каналы : 0 каналов
    Расположение каналов : Front: L C R, Side: L R, LFE
    Частота : 08,0 КГц
    Частота кадров : 01,250 кадров/сек (1536 spf)
    Битовая клиренс : 06 двоичный знак
    Метод сжатия : С потерями
    Размер потока : 019 Мбайт (7%)
    Язык : French
    Default : Нет
    Forced : Нет

    Текст
    Идентификатор : 0
    Формат : UTF-8
    Идентификатор кодека : S_TEXT/UTF8
    Идентификатор кодека/Информация : UTF-8 Plain Text
    Язык : French
    Default : Нет
    Forced : Нет

    Меню
    00:00:00.000 : fr:Chapter 0
    00:08:27.520 : fr:Chapter 0
    00:14:10.520 : fr:Chapter 0
    00:26:25.000 : fr:Chapter 0
    00:32:42.959 : fr:Chapter 0
    00:40:53.360 : fr:Chapter 0
0.8 изо 00
голосов: 01
0.1 07
Раздачу отредактировал: karta - 09-07-2017, 05:39
По причине: (+ 0 серия!)
karta 09-07-2017, 05:39
http://freerutor.org/ Информация
http://freerutor.org/ Посетители, находящиеся во группе Гости , безграмотный могут уходить комментарии для данной публикации.

fsvincent0909.laviewddns.com evtomsk0908.hello-ip.eu urroberto1308.laviewddns.com главная rss sitemap html link